VH 1978-09-22 Selland Arena RM

TopicsAll ForumsThe Great Bootleg ForestUnofficial Live Audio RecordingsVH 1978-09-22 Selland Arena RM

This topic has 20 voices, contains 39 replies, and was last updated by  ffoner 828 days ago.

September 21, 2014 at 5:35 pm Quote #38966

MikeVH
(43)

This is Great. Thank you.


  Quote
September 22, 2014 at 10:21 am Quote #38977

ron
(8928)

mrmojohalen: I might try to create a cue sheet unless someone beats me to it.

Excellent sound !

On Fire
I’m The One
Bass Solo
Runnin’ With The Devil
Atomic Punk
Drum Solo
Jamie’s Cryin’
Feel Your Love Tonight
Dave Talks
Ain’t Talkin’ ‘Bout Love
Guitar Solo
You Really Got Me
Bottoms Up

FILE “vanhalen.09.22.78.FW.wav” WAVE
TRACK 01 AUDIO
INDEX 01 00:00:00
TRACK 02 AUDIO
INDEX 01 03:35:31
TRACK 03 AUDIO
INDEX 01 08:44:21
TRACK 04 AUDIO
INDEX 01 10:24:59
TRACK 05 AUDIO
INDEX 01 14:15:71
TRACK 06 AUDIO
INDEX 01 16:58:36
TRACK 07 AUDIO
INDEX 01 18:08:63
TRACK 08 AUDIO
INDEX 01 21:38:47
TRACK 09 AUDIO
INDEX 01 26:08:38
TRACK 10 AUDIO
INDEX 01 29:00:16
TRACK 11 AUDIO
INDEX 01 34:58:52
TRACK 12 AUDIO
INDEX 01 39:26:11
TRACK 13 AUDIO
INDEX 01 45:40:45


  Quote
September 22, 2014 at 3:00 pm Quote #38996

eruption1962
(1359)

ron: On Fire I’m The One Bass Solo Runnin’ With The Devil Atomic Punk Drum Solo Jamie’s Cryin’ Feel Your Love Tonight Dave Talks Ain’t Talkin’ ‘Bout Love Guitar Solo You Really Got Me Bottoms Up

FILE “vanhalen.09.22.78.FW.wav” WAVE TRACK 01 AUDIO INDEX 01 00:00:00 TRACK 02 AUDIO INDEX 01 03:35:31 TRACK 03 AUDIO INDEX 01 08:44:21 TRACK 04 AUDIO INDEX 01 10:24:59 TRACK 05 AUDIO INDEX 01 14:15:71 TRACK 06 AUDIO INDEX 01 16:58:36 TRACK 07 AUDIO INDEX 01 18:08:63 TRACK 08 AUDIO INDEX 01 21:38:47 TRACK 09 AUDIO INDEX 01 26:08:38 TRACK 10 AUDIO INDEX 01 29:00:16 TRACK 11 AUDIO INDEX 01 34:58:52 TRACK 12 AUDIO INDEX 01 39:26:11 TRACK 13 AUDIO INDEX 01 45:40:45

BADASS!


  Quote
September 22, 2014 at 4:13 pm Quote #38999

single-8
(218)

eruption1962: Bottoms Up

this should be Bottoms Up! (with exclamation point) not to be a NP or anything..
S8S


  Quote
September 22, 2014 at 4:37 pm Quote #39003

mrmojohalen
(5434)

ron: On Fire I’m The One Bass Solo Runnin’ With The Devil Atomic Punk Drum Solo Jamie’s Cryin’ Feel Your Love Tonight Dave Talks Ain’t Talkin’ ‘Bout Love Guitar Solo You Really Got Me Bottoms Up

FILE “vanhalen.09.22.78.FW.wav” WAVE TRACK 01 AUDIO INDEX 01 00:00:00 TRACK 02 AUDIO INDEX 01 03:35:31 TRACK 03 AUDIO INDEX 01 08:44:21 TRACK 04 AUDIO INDEX 01 10:24:59 TRACK 05 AUDIO INDEX 01 14:15:71 TRACK 06 AUDIO INDEX 01 16:58:36 TRACK 07 AUDIO INDEX 01 18:08:63 TRACK 08 AUDIO INDEX 01 21:38:47 TRACK 09 AUDIO INDEX 01 26:08:38 TRACK 10 AUDIO INDEX 01 29:00:16 TRACK 11 AUDIO INDEX 01 34:58:52 TRACK 12 AUDIO INDEX 01 39:26:11 TRACK 13 AUDIO INDEX 01 45:40:45

ron: On Fire I’m The One Bass Solo Runnin’ With The Devil Atomic Punk Drum Solo Jamie’s Cryin’ Feel Your Love Tonight Dave Talks Ain’t Talkin’ ‘Bout Love Guitar Solo You Really Got Me Bottoms Up

FILE “vanhalen.09.22.78.FW.wav” WAVE TRACK 01 AUDIO INDEX 01 00:00:00 TRACK 02 AUDIO INDEX 01 03:35:31 TRACK 03 AUDIO INDEX 01 08:44:21 TRACK 04 AUDIO INDEX 01 10:24:59 TRACK 05 AUDIO INDEX 01 14:15:71 TRACK 06 AUDIO INDEX 01 16:58:36 TRACK 07 AUDIO INDEX 01 18:08:63 TRACK 08 AUDIO INDEX 01 21:38:47 TRACK 09 AUDIO INDEX 01 26:08:38 TRACK 10 AUDIO INDEX 01 29:00:16 TRACK 11 AUDIO INDEX 01 34:58:52 TRACK 12 AUDIO INDEX 01 39:26:11 TRACK 13 AUDIO INDEX 01 45:40:45

Do you have an actual cue file you can upload to dropbox or something ?


When you turn on your stereo, does it return the favor?


  Quote
September 22, 2014 at 4:44 pm Quote #39005

single-8
(218)

mrmojohalen: Do you have an actual cue file you can upload to dropbox or something ?

maybe..if I knew what that is……….


  Quote
September 22, 2014 at 4:47 pm Quote #39006

redozzman
(42)

Fabulous Show thank you!!!!!!!!!!!!!!!!!!!!!!!!!!


  Quote
September 22, 2014 at 6:01 pm Quote #39007

Gilligan
(1415)

Thanks! Very nice of you to share.


  Quote
September 22, 2014 at 6:10 pm Quote #39008

ron
(8928)

mrmojohalen: Do you have an actual cue file you can upload to dropbox or something ?

What I posted, is an actual CUE file. You’ll probably have to adjust the first line of it because this web site changes standard quote marks into smart or curly quotes. But otherwise, it’s just a cut-n-paste job. Also, somewhat unrelated, but keep in mind that the shared WAV file is 48K, and audio CDs are 44.1K


  Quote
September 22, 2014 at 6:51 pm Quote #39009

mrmojohalen
(5434)

ron: What I posted, is an actual CUE file.You’ll probably have to adjust the first line of it because this web site changes standard quote marks into smart or curly quotes.But otherwise, it’s just a cut-n-paste job.Also, somewhat unrelated, but keep in mind that the shared WAV file is 48K, and audio CDs are 44.1K

For some reason, I haven’t been able to figure out how to paste the information. What program do you use ?


When you turn on your stereo, does it return the favor?


  Quote
September 22, 2014 at 6:55 pm Quote #39010

mrmojohalen
(5434)

single-8: maybe..if I knew what that is……….

A cue file is a list of individual tracks, where they begin & end, so that you can split one big file into parts.

Think of one side of a cassette with music vs. a cd with individual tracks that you can access.


When you turn on your stereo, does it return the favor?


  Quote
September 22, 2014 at 7:14 pm Quote #39011

ron
(8928)

mrmojohalen: For some reason, I haven’t been able to figure out how to paste the information. What program do you use ?

A CUE sheet is just a text file. I use Notepad.


  Quote
September 22, 2014 at 7:26 pm Quote #39012

single-8
(218)

ron: the shared WAV file is 48K, and audio CDs are 44.1K

the DAT tape sampling frequency is 48mhz so I left it alone to retain the quality..Ive been working on this show some more and have Improved it,but its 24/32 bit..48mhz and over 700mb in size but it retains the definition of the DAT much more..
S8S


  Quote
September 22, 2014 at 8:34 pm Quote #39016

Gilligan
(1415)

“Have mercy!!”
Ha ha, that cracked me up for some reason – at the end of Atomic Punk.
And, “Ain’t nobody’s crying tonight, Fresno! Alex, gimme that fuuuunk-ya wa tyme hea!”
Awesome!


  Quote
September 22, 2014 at 9:09 pm Quote #39020

single-8
(218)

After YRGM someone is yelling “Who the fuck does he think he is?” Was it some asshole in the crowd? or DLR? I was right there and I dont remember. What a mystery.
S8S


  Quote

You must be logged in to reply to this topic.