VH 1993-04-19 Essen, Germany (2DVD)

TopicsAll ForumsThe Great Bootleg ForestDVDs / Unofficial Live Video RecordingsVH 1993-04-19 Essen, Germany (2DVD)

This topic has 2 voices, contains 3 replies, and was last updated by  jorge 141 days ago.

March 22, 2018 at 3:28 am Quote #58546

jorge
(345)

http://www.dimeadozen.org/torrents-details.php?id=617167

Source: Audience
received in trade => Hard drive => you
Menu:Yes
Chapter:Yes

Video:
MPEG-2, 625/60 (NTSC), 720×480 , Frame :25,00, Bitrate: 8.87Mbps

Audio:48Khz, channel 2.0 , Bitrate:256 Kbps

Setlist:

Poundcake
Judgement Day
Runaround
When It’s Love
There’s Only One Way to Rock
Bass Solo
Pleasure Dome
Drum Solo
Panama
Right Now
Why Can’t This Be Love
Finish What Ya Started
Eagles Fly
316 – Guitar Solo
Unchained
5150
Best of Both Worlds
Top of the World
Ain’t Talkin’ ‘Bout Love

Encore:
Jump
You Really Got Me


  Quote
March 26, 2018 at 8:02 pm Quote #58603

mrmojohalen
(5937)

What is the quality ? From the master ? Originally in PAL ?


When you turn on your stereo, does it return the favor?


  Quote
March 27, 2018 at 12:14 am Quote #58606

jorge
(345)

I suppose it was originally recorded in PAL, but I’m not sure. I haven’t had the time to watch it yet but I think it is quite nice judging from the few snippets and the thumbnails I’ve seen:

http://www.dimeadozen.org/attachments/7/617167/7808480/VTS_01_1.VOB_thumbs.jpg


  Quote
March 23, 2020 at 5:21 am Quote #61521

jorge
(345)

http://www.thetradersden.org/forums/showthread.php?t=157998&highlight=Halen

Footage is a little bouncy and the colors are oversaturated in spots. Plus the source tape had a few gens to it. Audio is good.

So take it – or don’t. LOL. Thanks to the filmer.

* * * * *

Van Halen
Grugahalle
Essen, Germany
April 19, 1993
RHRN Tour

unknown cam > mid-gen VHS > DVD

SET LIST

Poundcake
Judgment Day
Runaround
When It’s Love
There’s Only One Way to Rock
Bass Solo
Pleasure Dome
Drum Solo
Panama
Right Now
Why Can’t This Be Love
Finish What Ya Started
Eagles Fly
316 – Guitar Solo
Unchained
5150
Best of Both Worlds
Top of the World
Ain’t Talkin’ ‘Bout Love

Encore:
Jump
You Really Got Me

General
Complete name : DVD2/VIDEO_TS/VTS_01_1.VOB
Format : MPEG-PS
File size : 1 024 MiB
Duration : 15 min 42 s
Overall bit rate mode : Variable
Overall bit rate : 9 117 kb/s
Writing library : encoded by TMPGEnc Authoring Works 4 Version. 4.0.7.32

Video
ID : 224 (0xE0)
Format : MPEG Video
Format version : Version 2
Format profile : Main@Main
Format settings : BVOP
Format settings, BVOP : Yes
Format settings, Matrix : Default
Format settings, GOP : Variable
Format settings, picture structure : Frame
Duration : 15 min 42 s
Bit rate mode : Variable
Bit rate : 8 735 kb/s
Width : 720 pixels
Height : 576 pixels
Display aspect ratio : 4:3
Frame rate : 25.000 FPS
Standard : PAL
Color space : YUV
Chroma subsampling : 4:2:0
Bit depth : 8 bits
Scan type : Interlaced
Scan order : Top Field First
Compression mode : Lossy
Bits/(Pixel*Frame) : 0.842
Time code of first frame : 00:00:00:00
Time code source : Group of pictures header
Stream size : 975 MiB (95%)
Writing library : TMPGEnc Authoring Works 4 Version. 4.0.7.32
Color primaries : BT.601 PAL
Transfer characteristics : BT.470 System B/G
Matrix coefficients : BT.470 System B/G

Audio
ID : 189 (0xBD)-128 (0×80)
Format : AC-3
Format/Info : Audio Coding 3
Commercial name : Dolby Digital
Muxing mode : DVD-Video
Duration : 15 min 41 s
Bit rate mode : Constant
Bit rate : 256 kb/s
Channel(s) : 2 channels
Channel layout : L R
Sampling rate : 48.0 kHz
Frame rate : 31.250 FPS (1536 SPF)
Compression mode : Lossy
Stream size : 28.7 MiB (3%)
Service kind : Complete Main

Fingerprints:

484d4085347de5a1a670f6d7aa371445 */DVD1/VIDEO_TS/VIDEO_TS.BUP
484d4085347de5a1a670f6d7aa371445 */DVD1/VIDEO_TS/VIDEO_TS.IFO
a57fbfcfb3c490c98ec1b02786909ae8 */DVD1/VIDEO_TS/VIDEO_TS.VOB
7426cb4385ac385394036d1ce81a1eea */DVD1/VIDEO_TS/VTS_01_0.BUP
7426cb4385ac385394036d1ce81a1eea */DVD1/VIDEO_TS/VTS_01_0.IFO
6afd30f52deb1ecce9cbf34333b89223 */DVD1/VIDEO_TS/VTS_01_0.VOB
194810222d76a8f361a2531e20734ade */DVD1/VIDEO_TS/VTS_01_1.VOB
b741d8c90c1ec964856b86673b451505 */DVD1/VIDEO_TS/VTS_01_2.VOB
61933d24e729900e3bc0cb507b931cdd */DVD1/VIDEO_TS/VTS_01_3.VOB
c7199cf276431e0f09a4577a2d0cdaa5 */DVD1/VIDEO_TS/VTS_01_4.VOB
d34c3258339afae24a1cc85ad6af8fe4 */DVD2/VIDEO_TS/VIDEO_TS.BUP
d34c3258339afae24a1cc85ad6af8fe4 */DVD2/VIDEO_TS/VIDEO_TS.IFO
aa3c8a7abafb05cd2d2873e8bb360d33 */DVD2/VIDEO_TS/VIDEO_TS.VOB
3d76b4361b5a77be89260bd2abe55c67 */DVD2/VIDEO_TS/VTS_01_0.BUP
3d76b4361b5a77be89260bd2abe55c67 */DVD2/VIDEO_TS/VTS_01_0.IFO
17b26cae7e078e652892f8d30ebd387b */DVD2/VIDEO_TS/VTS_01_0.VOB
4c96e9d2a95af30bc78f50f957dd19e8 */DVD2/VIDEO_TS/VTS_01_1.VOB
79dfa58eff93a5a70ae563d1341e2a6b */DVD2/VIDEO_TS/VTS_01_2.VOB
2823e696e60844a304d7d8a04eb17031 */DVD2/VIDEO_TS/VTS_01_3.VOB
de83157a9ff9c6dfd162598c75eec196 */DVD2/VIDEO_TS/VTS_01_4.VOB
b147c0b83f820e02fe62330a77c54955 */DVD2/VIDEO_TS/VTS_01_5.VOB


  Quote

You must be logged in to reply to this topic.