David Lee Roth 1991-06-13 Tampa, FL

TopicsAll ForumsThe Great Bootleg ForestDVDs / Unofficial Live Video RecordingsDavid Lee Roth 1991-06-13 Tampa, FL

This topic has 1 voice, contains 0 replies, and was last updated by  gatomike26 120 days ago.

April 7, 2020 at 6:42 pm Quote #61593

gatomike26
(458)

http://www.thetradersden.org/forums/showthread.php?t=158366&highlight=david+roth

Video – Audience David Lee Roth 1991-06-13 Tampa, FL (NTSC)
Seeders: 8, Leechers: 0, Completed: 56

Haven’t seen this one around much, and that’s too bad because it’s pretty nice. Thanks to the filmer. Anyone wanna author it and make it a dvd-9? Seems like a worthwhile endeavor….

* * * * *

David Lee Roth
USF Sun Dome
Tampa, Florida
June 13, 1991
A Little Ain’t Enough Tour

low gen VHS (master?) > standalone DVD player

SET LIST

Disc 1 (43:09)

You Really Got Me (The Kinks/Van Halen)
A Lil’ Ain’t Enough
Panama (Van Halen)
Unchained (Van Halen)
Easy Street (Edgar Winter)
Beautiful Girls (Van Halen)
Just A Gigolo / I Ain’t Got Nobody

Disc 2 (34:53)

Hot For Teacher (Van Halen)
Tell The Truth
Just Like Paradise
Yankee Rose
Ain’t Talkin’ ‘Bout Love (Van Halen)
California Girls (The Beach Boys)
Jump (Van Halen)

Band:

DLR (v)
Joe Holmes (g)
Todd Jensen (b)
Greg Bissonette (d)
Brett Tuggle (k)

General
Complete name : DVD1/VIDEO_TS/VTS_01_2.VOB
Format : MPEG-PS
File size : 1 024 MiB
Duration : 14 min 57 s
Overall bit rate mode : Variable
Overall bit rate : 9 568 kb/s

Video
ID : 224 (0xE0)
Format : MPEG Video
Format version : Version 2
Format profile : Main@Main
Format settings : CustomMatrix / BVOP
Format settings, BVOP : Yes
Format settings, Matrix : Custom
Format settings, GOP : M=3, N=15
Format settings, picture structure : Frame
Duration : 14 min 57 s
Bit rate mode : Variable
Bit rate : 9 121 kb/s
Maximum bit rate : 9 586 kb/s
Width : 704 pixels
Height : 480 pixels
Display aspect ratio : 4:3
Frame rate : 29.970 (30000/1001) FPS
Standard : NTSC
Color space : YUV
Chroma subsampling : 4:2:0
Bit depth : 8 bits
Scan type : Interlaced
Scan order : Top Field First
Compression mode : Lossy
Bits/(Pixel*Frame) : 0.901
Time code of first frame : 00:14:52:00
Time code source : Group of pictures header
Stream size : 976 MiB (95%)
Color primaries : BT.601 NTSC
Transfer characteristics : BT.601
Matrix coefficients : BT.601

Audio
ID : 189 (0xBD)-128 (0×80)
Format : AC-3
Format/Info : Audio Coding 3
Commercial name : Dolby Digital
Muxing mode : DVD-Video
Duration : 14 min 57 s
Bit rate mode : Constant
Bit rate : 256 kb/s
Channel(s) : 2 channels
Channel layout : L R
Sampling rate : 48.0 kHz
Frame rate : 31.250 FPS (1536 SPF)
Compression mode : Lossy
Delay relative to video : -223 ms
Stream size : 27.4 MiB (3%)
Service kind : Complete Main


  Quote

You must be logged in to reply to this topic.