Van Halen 1991-09-14 Mountain View, CA

TopicsAll ForumsThe Great Bootleg ForestDVDs / Unofficial Live Video RecordingsVan Halen 1991-09-14 Mountain View, CA

This topic has 1 voice, contains 0 replies, and was last updated by  jorge 12 days ago.

March 23, 2020 at 5:23 am Quote #61522

jorge
(277)

http://www.thetradersden.org/forums/showthread.php?t=157917&highlight=Halen

Van Halen
Shoreline Amphitheater
Mountain View, CA
September 14, 1991 (Night 2 of 2)

unknown gen VHS > ? > DVD

SET LIST:

Disc 1 (56:28)

Poundcake
Judgment Day
Spanked
Runaround
When It’s Love
There’s Only One Way To Rock
Bass Solo
Drum Solo
A.F.U. (Naturally Wired)
Panama

Disc 2 (1:00:32)

Why Can’t This Be Love
Finish What Ya Started
Where Eagles Fly
EVH Guitar Solo
Best of Both Worlds
I Can’t Drive 55
The Dream Is Over

Jump
Top of the World

SPECIFICATIONS:

General
Complete name : DVD1/VIDEO_TS/VTS_01_2.VOB
Format : MPEG-PS
File size : 1.00 GiB
Duration : 16 min 29 s
Overall bit rate mode : Variable
Overall bit rate : 8 682 kb/s

Video
ID : 224 (0xE0)
Format : MPEG Video
Format version : Version 2
Format profile : Main@Main
Format settings : BVOP
Format settings, BVOP : Yes
Format settings, Matrix : Default
Format settings, GOP : M=3, N=15
Format settings, picture structure : Frame
Duration : 16 min 29 s
Bit rate mode : Variable
Bit rate : 8 317 kb/s
Maximum bit rate : 9 250 kb/s
Width : 720 pixels
Height : 480 pixels
Display aspect ratio : 4:3
Frame rate : 29.970 (30000/1001) FPS
Standard : NTSC
Color space : YUV
Chroma subsampling : 4:2:0
Bit depth : 8 bits
Scan type : Interlaced
Scan order : Bottom Field First
Compression mode : Lossy
Bits/(Pixel*Frame) : 0.803
Time code of first frame : 00:16:22:28
Time code source : Group of pictures header
GOP, Open/Closed : Open
Stream size : 981 MiB (96%)

Audio
ID : 189 (0xBD)-128 (0×80)
Format : AC-3
Format/Info : Audio Coding 3
Commercial name : Dolby Digital
Muxing mode : DVD-Video
Duration : 16 min 29 s
Bit rate mode : Constant
Bit rate : 192 kb/s
Channel(s) : 2 channels
Channel layout : L R
Sampling rate : 48.0 kHz
Frame rate : 31.250 FPS (1536 SPF)
Compression mode : Lossy
Delay relative to video : -207 ms
Stream size : 22.6 MiB (2%)
Service kind : Complete Main

Fingerprints:

Disc 1
fa9ef3e7c8b2f896d9199ce885cdf1ac *VIDEO_TS.BUP
fa9ef3e7c8b2f896d9199ce885cdf1ac *VIDEO_TS.IFO
c31008933327046c766a06254407f383 *VIDEO_TS.VOB
564aec2871d56752be0fa833dd14e920 *VTS_01_0.BUP
564aec2871d56752be0fa833dd14e920 *VTS_01_0.IFO
425b22643608b4871b719f434f56b4c8 *VTS_01_1.VOB
8b1ead39baf939cde2caba9898e4b704 *VTS_01_2.VOB
e9b92fd82c3af8a662b3ece9cb9277a7 *VTS_01_3.VOB
4b4c5794db4e48e8ca8f7a916eaf2147 *VTS_01_4.VOB

Disc 2
7322a0ba7d36cd4b5dbff5883a30c46b *VIDEO_TS.BUP
7322a0ba7d36cd4b5dbff5883a30c46b *VIDEO_TS.IFO
c31d6fa7938e0260411dfd2e336383fd *VIDEO_TS.VOB
8c7a9a224cda574f93666e1dc20ca51e *VTS_01_0.BUP
8c7a9a224cda574f93666e1dc20ca51e *VTS_01_0.IFO
44e4b77cdbe6c7561f730f977a7d038e *VTS_01_1.VOB
2da01eee01ac5655ab4d617fc63ad9e3 *VTS_01_2.VOB
e2ea1eafab14fa16d7e4b0c6c603bc83 *VTS_01_3.VOB
9673fbbc1dfc9cd6368410f517f38e61 *VTS_01_4.VOB


  Quote

You must be logged in to reply to this topic.