VH March 9th 2012 Buffalo, NY BluRay

TopicsAll ForumsThe Great Bootleg ForestDVDs / Unofficial Live Video RecordingsVH March 9th 2012 Buffalo, NY BluRay

This topic has 17 voices, contains 31 replies, and was last updated by  jorge 167 days ago.

December 16, 2013 at 1:48 am Quote #31493

kite
(2009)

oryo: We have several players in the house but no burner.

Ory, i spoke for myself with the player, but in this case it will not work. My linux doesn’t support blu -ray



  Quote
February 26, 2020 at 12:08 am Quote #61451

jorge
(345)

http://www.dimeadozen.org/torrents-details.php?id=669403

VAN HALEN *BLU-RAY* 1 CAM AUD SHOT **MASTER VIDEO UNALTERED WITH NO RE-ENCODING**
2012-03-09
First Niagara Center
Buffalo,NY(USA)

Released on February 25th 2020

NOTE: I used my camera in a multicam bluray previously but this is the first time released as a SINGLE CAM.

Filmed by: BEATKILLA
Authored by: BEATKILLA

Video: Sony cx550v > 1920 x 1080 > MASTER VIDEO IS BLURAY COMPLIANT AND REQUIRED NO RE-ENCODING.

Audio: BOULIASOUL source CSB>Bbox>Sony PCM-M10>Sony Vegas PRO(Synch audio to MASTER video)Render audio file.

Authored: DVD Architect 5.0 (Replaced camcorder audio with CSB source(video has no re-encoding and is straight from camcorder.)Add Chapter points.

You can burn this to a single layer BR-D 25GB

OR simply navigate into the BDMV folder > STREAM folder > Play the stream on your computer.

NOTE: Inbetween songs i would lower the camera to give my arms a rest from being all the way raised over my head.

You Really Got Me
Runnin’ With The Devil
She’s The Woman
Romeo Delight
Tattoo
Everybody Wants Some
Somebody Get Me A Doctor
China Town
Hear About It Later
(Oh) Pretty Woman
Drum Solo
Unchained
The Trouble With Never
Dance The Night Away
I’ll Wait
Hot For Teacher
Women In Love
Girl Gone Bad
Beautiful Girls
Dave Rap
Ice Cream Man
Panama
Guitar Solo (Eruption / Cathedral)
Ain’t Talkin’ ‘Bout Love
***Jump***NOT RECORDED.

General
ID : 0 (0×0)
Complete name : C:\VAN HALEN 2012-03-09 Beatkilla 1 CAM bluray\BDMV\STREAM0001.m2ts
Format : BDAV
Format/Info : Blu-ray Video
File size : 17.2 GiB
Duration : 1 h 50 min
Overall bit rate mode : Variable
Overall bit rate : 22.2 Mb/s
Maximum Overall bit rate : 48.0 Mb/s
Recorded date : 2012-03-08 20:55:09-05:00
Writing application : Sony HDR-CX550V

Video
ID : 4113 (0×1011)
Menu ID : 1 (0×1)
Format : AVC
Format/Info : Advanced Video Codec
Format profile : High@L4
Format settings : CABAC / 2 Ref Frames
Format settings, CABAC : Yes
Format settings, Reference frames : 2 frames
Format settings, GOP : M=2, N=15
Codec ID : 27
Duration : 1 h 50 min
Bit rate mode : Variable
Bit rate : 21.2 Mb/s
Maximum bit rate : 22.0 Mb/s
Width : 1 920 pixels
Height : 1 080 pixels
Display aspect ratio : 16:9
Frame rate : 29.970 (30000/1001) FPS
Color space : YUV
Chroma subsampling : 4:2:0
Bit depth : 8 bits
Scan type : Interlaced
Scan type, store method : Separated fields
Scan order : Top Field First
Bits/(Pixel*Frame) : 0.341
Stream size : 16.3 GiB (95%)
IrisFNumber : 1.800000

Audio
ID : 4352 (0×1100)
Menu ID : 1 (0×1)
Format : AC-3
Format/Info : Audio Coding 3
Commercial name : Dolby Digital
Codec ID : 129
Duration : 1 h 50 min
Bit rate mode : Constant
Bit rate : 192 kb/s
Channel(s) : 2 channels
Channel layout : L R
Sampling rate : 48.0 kHz
Frame rate : 31.250 FPS (1536 SPF)
Compression mode : Lossy
Delay relative to video : -67 ms
Stream size : 152 MiB (1%)
Service kind : Complete Main


  Quote

You must be logged in to reply to this topic.